Архив Об архиве FAQ New BAN List Полезные ссылки Друзья архива Архив новостей
Архив by ArjLover   Архив by ArjLover
Мультики by ArjLover
Поиск фильмов, мультиков и аудиосказок
Перезагрузить страницу Помню, ищу «Мудромер», не помню мульт про три ключа
Регистрация СправкаПравила форума Поиск Сообщения за день Все разделы прочитаны Пользователи Календарь

Поиск фильмов, мультиков и аудиосказок Запросы и общение по обмену и поиску любимых произведений в сети

Ответ
 
Опции темы Опции просмотра
  #41  
Старый 01.07.2014, 06:39
Аватар для Белая Волчица
Member
 
Регистрация: 10.05.2013
Russian Federation
Пол: Female
Сообщений: 43
...а лучше не будет. Просто ссылки в теме не было. Я на другом ресурсе нашла.
Ответить с цитированием
  #42  
Старый 02.07.2014, 20:33
Аватар для PavelDAS
Member
 
Регистрация: 03.05.2013
Belarus
Пол: Male
Сообщений: 71
Отправить сообщение для PavelDAS с помощью Skype™
Цитата:
Сообщение от Белая Волчица
...а лучше не будет.
Так я не ищу, а предлагаю.
Ответить с цитированием
  #43  
Старый 03.07.2014, 07:27
Аватар для Комиссар
Senior Member
 
Регистрация: 25.05.2012
Kazakhstan
Сообщений: 462
Цитата:
Сообщение от PavelDAS Посмотреть сообщение
Так я не ищу, а предлагаю.
Если у вас, судя по скрину, есть TVRip, а не VHSRip, то обязательно, обязательно, обязательно залейте его на какой-нибудь файлообменник. Давно ищу этот фильм в приличном качестве.
Ответить с цитированием
  #44  
Старый 04.07.2014, 22:06
Аватар для PavelDAS
Member
 
Регистрация: 03.05.2013
Belarus
Пол: Male
Сообщений: 71
Отправить сообщение для PavelDAS с помощью Skype™
Цитата:
Сообщение от Комиссар Посмотреть сообщение
Если у вас, судя по скрину, есть TVRip, а не VHSRip, то обязательно, обязательно, обязательно залейте его на какой-нибудь файлообменник. Давно ищу этот фильм в приличном качестве.
Это запись с цифрового телевидения, а не TVRip.
Скрин с исходника.
Параметры такие:
Нажмите здесь, чтобы увидеть весь текст
Код:
General
ID                             : 1 (0x1)
Complete name                  : E:\Мудромер 2-2 (1988).ts
Format                         : MPEG-TS
File size                      : 1.11 GiB
Duration                       : 1h 4mn
Overall bit rate mode          : Variable
Overall bit rate               : 2 477 Kbps

Video
ID                             : 801 (0x321)
Menu ID                        : 8 (0x8)
Format                         : AVC
Format/Info                    : Advanced Video Codec
Format profile                 : Main@L3.0
Format settings, CABAC         : Yes
Format settings, ReFrames      : 4 frames
Codec ID                       : 27
Duration                       : 1h 4mn
Bit rate                       : 2 096 Kbps
Width                          : 720 pixels
Height                         : 576 pixels
Display aspect ratio           : 4:3
Frame rate                     : 25.000 fps
Standard                       : PAL
Color space                    : YUV
Chroma subsampling             : 4:2:0
Bit depth                      : 8 bits
Scan type                      : MBAFF
Bits/(Pixel*Frame)             : 0.202
Stream size                    : 962 MiB (85%)
Color primaries                : BT.601 PAL
Transfer characteristics       : BT.470 System B, BT.470 System G
Matrix coefficients            : BT.601

Audio
ID                             : 802 (0x322)
Menu ID                        : 8 (0x8)
Format                         : MPEG Audio
Format version                 : Version 1
Format profile                 : Layer 2
Codec ID                       : 3
Duration                       : 1h 4mn
Bit rate mode                  : Constant
Bit rate                       : 256 Kbps
Channel(s)                     : 2 channels
Sampling rate                  : 48.0 KHz
Compression mode               : Lossy
Delay relative to video        : 109ms
Stream size                    : 117 MiB (10%)

Релиз в avi будет по правилам рутрекера. Ждите...
И это версия в 2-х сериях.

Ещё скрин:

Последний раз редактировалось PavelDAS, 04.07.2014 в 22:14.
Ответить с цитированием
  #45  
Старый 12.07.2014, 15:05
Аватар для PavelDAS
Member
 
Регистрация: 03.05.2013
Belarus
Пол: Male
Сообщений: 71
Отправить сообщение для PavelDAS с помощью Skype™
Цитата:
Сообщение от Комиссар
Если у вас, судя по скрину, есть TVRip, а не VHSRip, то обязательно, обязательно, обязательно залейте его на какой-нибудь файлообменник. Давно ищу этот фильм в приличном качестве.
http://rutracker.org/forum/viewtopic.php?t=4227176
Ответить с цитированием
  #46  
Старый 16.07.2014, 20:14
Аватар для PavelDAS
Member
 
Регистрация: 03.05.2013
Belarus
Пол: Male
Сообщений: 71
Отправить сообщение для PavelDAS с помощью Skype™
Между прочим, по этому сценарию есть ещё и спектакль на белорусском.
Мудрамер (1989)
https://www.youtube.com/watch?v=vEfgKZ5dlU0
Ответить с цитированием
  #47  
Старый 25.07.2014, 10:16
Member
 
Регистрация: 03.12.2008
Belarus
Пол: Male
Сообщений: 69
Может этот?
http://www.baravik.org/topic/1306/
Ответить с цитированием
Ответ


Здесь присутствуют: 1 (пользователей: 0 , гостей: 1)
 
Опции темы
Опции просмотра

Ваши права в разделе
You may not post new threads
You may not post replies
You may not post attachments
You may not edit your posts

BB code is Вкл.
Смайлы Вкл.
[IMG] код Вкл.
HTML код Выкл.

Быстрый переход


Часовой пояс GMT +3, время: 00:07.


vBulletin® Version 3.8.7.
Copyright ©2000 - 2021, Jelsoft Enterprises Ltd.
Перевод: zCarot