Архив Об архиве FAQ New BAN List Полезные ссылки Друзья архива Архив новостей
Архив by ArjLover   Архив by ArjLover
Регистрация СправкаПравила форума Поиск Сообщения за день Все разделы прочитаны Пользователи Календарь

Поиск фильмов, мультиков и аудиосказок Запросы и общение по обмену и поиску любимых произведений в сети

Ответ
 
Опции темы Опции просмотра
  #1  
Старый 03.08.2009, 11:08
Member
 
Регистрация: 25.07.2009
Russian Federation
Сообщений: 45
Взрослые фильмы: ищется Ищу фильм "Герой ее романа" (1984)

Ищу музыкальную комедию "Герой ее романа" (1984) (с Шевельковым, Беляевой, Боярским, Мигицко и др.) Нигде пока найти не мог и даже по ТВ (по крайней мере общедоступные каналы) за последние лет 15 его (по моим наблюдениям) не показывали... А на видео был издан одноименный фильм 2000 года (с Булдаковым).
Ответить с цитированием
  #2  
Старый 15.01.2020, 04:13
Модератор
 
Регистрация: 14.08.2019
United States
Сообщений: 345
Фильма почему-то до сих пор нет ни на одном ресурсе в сети, есть только трёхминутный отрывок

https://www.youtube.com/watch?v=Ac9ofzpFj-0
Ответить с цитированием
  #3  
Старый 15.01.2020, 12:26
Супермодератор
 
Регистрация: 10.12.2006
Адрес: Russian Federation Москва
Пол: Male
Сообщений: 4,990
Рип всё время был, но не соответствует правилам трекеров (packed bitstream и не mod16):

Нажмите здесь, чтобы увидеть весь текст
Код:
Complete name                            : P:\geroj.ejo.romana.avi
Format                                   : AVI
Format/Info                              : Audio Video Interleave
File size                                : 701 MiB
Duration                                 : 1h 14mn
Overall bit rate                         : 1 315 Kbps
Movie name                               : Geroj ejo romana
Director                                 : Mosfil'm
Recorded date                            : 1984
Writing application                      : VirtualDubMod 1.5.10.1 (build 2366/release)
Writing library                          : VirtualDubMod build 2366/release

Video
ID                                       : 0
Format                                   : MPEG-4 Visual
Format settings, BVOP                    : 1
Format settings, QPel                    : No
Format settings, GMC                     : No warppoints
Format settings, Matrix                  : Default (H.263)
Muxing mode                              : Packed bitstream
Codec ID                                 : DX50
Codec ID/Hint                            : DivX 5
Duration                                 : 1h 14mn
Bit rate                                 : 1 209 Kbps
Width                                    : 600 pixels
Height                                   : 304 pixels
Display aspect ratio                     : 1.974
Frame rate                               : 25.000 fps
Color space                              : YUV
Chroma subsampling                       : 4:2:0
Bit depth                                : 8 bits
Scan type                                : Progressive
Compression mode                         : Lossy
Bits/(Pixel*Frame)                       : 0.265
Stream size                              : 645 MiB (92%)
Writing library                          : DivX 5.0.3 (UTC 2003-01-24)

Audio
ID                                       : 1
Format                                   : MPEG Audio
Format version                           : Version 1
Format profile                           : Layer 3
Codec ID                                 : 55
Codec ID/Hint                            : MP3
Duration                                 : 1h 14mn
Bit rate mode                            : Constant
Bit rate                                 : 96.0 Kbps
Channel(s)                               : 1 channel
Sampling rate                            : 44.1 KHz
Compression mode                         : Lossy
Stream size                              : 51.2 MiB (7%)
Alignment                                : Split accross interleaves
Interleave, duration                     : 39 ms (0.97 video frame)
Interleave, preload duration             : 500 ms

Из ресурсов, которым материал важнее mod16 и пр. — сильно сомневаюсь, что его тогда же в 2006-м не раздавали на Фениксе, а почему его нет у нас — может просто места не было, или что-то не работало, как сейчас.
Ответить с цитированием
  #4  
Старый 15.01.2020, 20:46
Модератор
 
Регистрация: 14.08.2019
United States
Сообщений: 345
Цитата:
Сообщение от Turtle Посмотреть сообщение
Рип всё время был, но не соответствует правилам трекеров (packed bitstream и не mod16):
Уважамеый Turtle, если Вас не затруднит, а можно Вас попросить выложить этот рип куда-нибудь в какое нибудь файлохранилище где к этому рипу можно было бы иметь свободный доступ?

Заранее спасибо
Ответить с цитированием
  #5  
Старый 16.01.2020, 10:20
Супермодератор
 
Регистрация: 10.12.2006
Адрес: Russian Federation Москва
Пол: Male
Сообщений: 4,990
Вы вандализм предлагаете — с файлообменника его пару раз скачают, кое-как пережмут и выложат на те же самые трекеры — на примере этой темы:

http://kinozal.tv/details.php?id=1234211

http://kinozal.tv/details.php?id=1603735
Ответить с цитированием
Ответ


Здесь присутствуют: 1 (пользователей: 0 , гостей: 1)
 
Опции темы
Опции просмотра

Ваши права в разделе
You may not post new threads
You may not post replies
You may not post attachments
You may not edit your posts

BB code is Вкл.
Смайлы Вкл.
[IMG] код Вкл.
HTML код Выкл.

Быстрый переход


Часовой пояс GMT +3, время: 01:37.


vBulletin® Version 3.8.7.
Copyright ©2000 - 2020, Jelsoft Enterprises Ltd.
Перевод: zCarot