Архив Об архиве FAQ New BAN List Полезные ссылки Друзья архива Архив новостей
Архив by ArjLover   Архив by ArjLover
Регистрация СправкаПравила форума Поиск Сообщения за день Все разделы прочитаны Пользователи Календарь

Хочу поделиться отсутствующие в Архиве произведения.

Ответ
 
Опции темы Опции просмотра
  #1  
Старый 04.09.2013, 23:50
Аватар для Александр Гор
Senior Member
 
Регистрация: 04.11.2008
Venezuela
Пол: Male
Сообщений: 261
Бенефис Дорониной

Точнее... телевизионный фильм-спектакль восьмидесятого года, под названием «Бенефис». С использованием различных фрагментов постановок, где довелось сыграть актрисе театра и кино, певице, театральному режиссёру, художественному руководителю МХАТ-а имени Горького, народной артистке СССР... Татьяне Васильевне Дорониной...
В этой подборке, Татьяна Васильевна - иногда предстаёт в совершенно необычном агрессивном амплуа... А иногда, по обыкновению - принимает образ - дородной русской женщины.

Вот источник рипа...
http://rutracker.org/forum/viewtopic.php?t=1524655
Основной целью преобразования было... получение файла - всё-таки в полтора, а не в семь "с гаком" гигабайт! :)
Так же изображение подверглось щадящему «дэинтерлейсингу». (Устранению чересстрочных искажений)
И... обрезке вертикальных полей.

Подробные технические данные (кликните)
Общее
Полное имя : benefice.doronina.avi
Формат : AVI
Формат/Информация : Audio Video Interleave
Размер файла : 1,50 Гбайт
Продолжительность : 1 ч. 46 м.
Общий поток : 2027 Кбит/сек
Библиотека кодирования : VirtualDub build 32817/release

Видео
Идентификатор : 0
Формат : MPEG-4 Visual
Профиль формата : Advanced Simple@L5
Параметр BVOP формата : 2
Параметр QPel формата : Нет
Параметр GMC формата : Без точки перехода
Параметр матрицы формата : Default (H.263)
Режим смешивания : Сжатый битовый поток
Идентификатор кодека : XVID
Идентификатор кодека/Подсказка : XviD
Продолжительность : 1 ч. 46 м.
Битрейт : 1761 Кбит/сек
Ширина : 688 пикс.
Высота : 576 пикс.
Соотношение сторон : 1,194
Частота кадров : 25,000 кадр/сек
Цветовое пространство : YUV
Подвыборка цветности : 4:2:0
Битовая глубина : 8 бит
Тип развёртки : Прогрессивная
Метод сжатия : С потерями
Бит/(Пиксели*Кадры) : 0.178
Размер потока : 1,31 Гбайт (87%)
Библиотека кодирования : XviD 1.2.1 (UTC 2008-12-04)

Аудио
Идентификатор : 1
Формат : AC-3
Формат/Информация : Audio Coding 3
Расширение режима : CM (complete main)
Идентификатор кодека : 2000
Продолжительность : 1 ч. 46 м.
Вид битрейта : Постоянный
Битрейт : 256 Кбит/сек
Каналы : 2 канала
Расположение каналов : Front: L R
Частота : 48,0 КГц
Битовая глубина : 16 бит
Метод сжатия : С потерями
Размер потока : 194 Мбайт (13%)
Выравнивание : Соединение по промежуткам
Продолжительность промежутка : 40 мс. (1,00 видеокадр)
Время предзагрузки промежутка : 512 ms



И... сам файл!
http://yadi.sk/d/x65NPSeC8jB3p

Последний раз редактировалось Александр Гор, 05.09.2013 в 00:08.
Ответить с цитированием
Ответ


Здесь присутствуют: 1 (пользователей: 0 , гостей: 1)
 
Опции темы
Опции просмотра

Ваши права в разделе
Вы не можете создавать темы
Вы не можете отвечать на сообщения
Вы не можете прикреплять файлы
Вы не можете редактировать сообщения

BB коды Вкл.
Смайлы Вкл.
[IMG] код Вкл.
HTML код Выкл.
Быстрый переход


Часовой пояс GMT +3, время: 03:54.


vBulletin® Version 3.6.8.
Copyright ©2000 - 2018, Jelsoft Enterprises Ltd.
Перевод: zCarot