Показать сообщение отдельно
  #1  
Старый 11.09.2013, 19:45
Аватар для Александр Гор
Senior Member
 
Регистрация: 04.11.2008
Venezuela
Пол: Male
Сообщений: 261
Карманный театр HQ

Попытка придать кадру телеспектакля «Карманный театр» бОльшую чёткость...



Я знаю, что телеспектакль этот имеется в архиве, и вряд ли его заменят... но вдруг кому пригодится и эта копия...

Вот источник рипа...
http://rutracker.org/forum/viewtopic.php?t=1873675

Вот технические данные...
(кликните)
Общее
Полное имя : karmannyj.teatr.r.avi
Формат : AVI
Формат/Информация : Audio Video Interleave
Размер файла : 979 Мбайт
Продолжительность : 1 ч. 25 м.
Общий поток : 1601 Кбит/сек
Библиотека кодирования : VirtualDub build 32817/release

Видео
Идентификатор : 0
Формат : MPEG-4 Visual
Профиль формата : Advanced Simple@L5
Параметр BVOP формата : 2
Параметр QPel формата : Нет
Параметр GMC формата : Без точки перехода
Параметр матрицы формата : Default (H.263)
Режим смешивания : Сжатый битовый поток
Идентификатор кодека : XVID
Идентификатор кодека/Подсказка : XviD
Продолжительность : 1 ч. 25 м.
Битрейт : 1143 Кбит/сек
Ширина : 720 пикс.
Высота : 576 пикс.
Соотношение сторон : 5:4
Частота кадров : 25,000 кадр/сек
Стандарт вещания : PAL
Цветовое пространство : YUV
Подвыборка цветности : 4:2:0
Битовая глубина : 8 бит
Тип развёртки : Прогрессивная
Метод сжатия : С потерями
Бит/(Пиксели*Кадры) : 0.110
Размер потока : 699 Мбайт (71%)
Библиотека кодирования : XviD 1.2.1 (UTC 2008-12-04)

Аудио
Идентификатор : 1
Формат : AC-3
Формат/Информация : Audio Coding 3
Расширение режима : CM (complete main)
Идентификатор кодека : 2000
Продолжительность : 1 ч. 25 м.
Вид битрейта : Постоянный
Битрейт : 448 Кбит/сек
Каналы : 2 канала
Расположение каналов : Front: L R
Частота : 48,0 КГц
Битовая глубина : 16 бит
Метод сжатия : С потерями
Размер потока : 274 Мбайт (28%)
Выравнивание : Соединение по промежуткам
Продолжительность промежутка : 40 мс. (1,00 видеокадр)
Время предзагрузки промежутка : 512 ms


И сам видеофайл:
http://yadi.sk/d/CnvSwwWV94uZC
Ответить с цитированием