Форум by ArjLover

Форум by ArjLover (http://forum.arjlover.net/index.php)
-   Хочу поделиться (http://forum.arjlover.net/forumdisplay.php?f=18)
-   -   Бенефис Дорониной (http://forum.arjlover.net/showthread.php?t=14450)

Александр Гор 04.09.2013 23:50

Бенефис Дорониной
 
Точнее... телевизионный фильм-спектакль восьмидесятого года, под названием «Бенефис». С использованием различных фрагментов постановок, где довелось сыграть актрисе театра и кино, певице, театральному режиссёру, художественному руководителю МХАТ-а имени Горького, народной артистке СССР... Татьяне Васильевне Дорониной...
В этой подборке, Татьяна Васильевна - иногда предстаёт в совершенно необычном агрессивном амплуа... А иногда, по обыкновению - принимает образ - дородной русской женщины.

Вот источник рипа...
http://rutracker.org/forum/viewtopic.php?t=1524655
Основной целью преобразования было... получение файла - всё-таки в полтора, а не в семь "с гаком" гигабайт! :)
Так же изображение подверглось щадящему «дэинтерлейсингу». (Устранению чересстрочных искажений)
И... обрезке вертикальных полей.

Подробные технические данные (кликните)
Общее
Полное имя : benefice.doronina.avi
Формат : AVI
Формат/Информация : Audio Video Interleave
Размер файла : 1,50 Гбайт
Продолжительность : 1 ч. 46 м.
Общий поток : 2027 Кбит/сек
Библиотека кодирования : VirtualDub build 32817/release

Видео
Идентификатор : 0
Формат : MPEG-4 Visual
Профиль формата : Advanced Simple@L5
Параметр BVOP формата : 2
Параметр QPel формата : Нет
Параметр GMC формата : Без точки перехода
Параметр матрицы формата : Default (H.263)
Режим смешивания : Сжатый битовый поток
Идентификатор кодека : XVID
Идентификатор кодека/Подсказка : XviD
Продолжительность : 1 ч. 46 м.
Битрейт : 1761 Кбит/сек
Ширина : 688 пикс.
Высота : 576 пикс.
Соотношение сторон : 1,194
Частота кадров : 25,000 кадр/сек
Цветовое пространство : YUV
Подвыборка цветности : 4:2:0
Битовая глубина : 8 бит
Тип развёртки : Прогрессивная
Метод сжатия : С потерями
Бит/(Пиксели*Кадры) : 0.178
Размер потока : 1,31 Гбайт (87%)
Библиотека кодирования : XviD 1.2.1 (UTC 2008-12-04)

Аудио
Идентификатор : 1
Формат : AC-3
Формат/Информация : Audio Coding 3
Расширение режима : CM (complete main)
Идентификатор кодека : 2000
Продолжительность : 1 ч. 46 м.
Вид битрейта : Постоянный
Битрейт : 256 Кбит/сек
Каналы : 2 канала
Расположение каналов : Front: L R
Частота : 48,0 КГц
Битовая глубина : 16 бит
Метод сжатия : С потерями
Размер потока : 194 Мбайт (13%)
Выравнивание : Соединение по промежуткам
Продолжительность промежутка : 40 мс. (1,00 видеокадр)
Время предзагрузки промежутка : 512 ms



И... сам файл!
http://yadi.sk/d/x65NPSeC8jB3p


Часовой пояс GMT +3, время: 06:11.

vBulletin® Version 3.8.7.
Copyright ©2000 - 2020, Jelsoft Enterprises Ltd.
Перевод: zCarot